搜索
查看: 2641|回复: 6

[4K蓝光] [4K电影]玩命快递3 Transporter.3.2008.2160p.BluRay.x264.8bit.SDR.DTS-SW...

[复制链接]

159

主题

163

帖子

2051

积分

管理员

Rank: 9Rank: 9Rank: 9

积分
2051
发表于 2018-8-15 14:50:44 | 显示全部楼层 |阅读模式
032515.52147684_1000X1000.jpg 大小:48.11 GB

◎译  名 玩命快递3/非常人贩3/玩命速递3/绝命速递3
◎片  名 Transporter 3
◎年  代 2008
◎产  地 法国
◎类  别 动作/犯罪
◎语  言 英语/法语/乌克兰语/俄语/匈牙利语
◎上映日期 2008-11-26(法国)/2009-02-12(中国大陆)
◎IMDb评分  6.1/10 from 141,792 users
◎豆瓣评分 6.9/10 from 51,690 users
◎豆瓣链接 [size=0.9em]https://movie.douban.com/subject/3018122/
◎BT之家整理 [size=0.9em]http://www.btbtt.co
◎片  长 104分钟
◎导  演 奥利维尔·米加顿 Olivier Megaton
◎主  演 杰森·斯坦森 Jason Statham
      Natalya Rudakova
      弗朗索瓦·贝莱昂 François Berléand
      罗伯特·克耐普 Robert Knepper
      杰罗恩·克拉比 Jeroen Krabbé
      Alex Kobold
      David Atrakchi

◎简  介

  超强押运人弗兰克·马丁(杰森·斯坦森 Jason Statham 饰)平静的休假再次被打破,一名驾驶着奥迪车的男人载着一名女孩在马赛横冲直撞,与此同时,商人约翰森(Robert Knepper 饰)为了向乌克兰运输有毒物质正与该国环境部长针锋相对。受伤的奥迪车司机闯入弗兰克家中,并死于手腕上的炸弹,他的幕后老板约翰森强迫弗兰克接替运送女孩的任务,被安装了手腕炸弹的弗兰克不得不就范,因为只要他离开车子75英尺炸弹就会引爆。在前往布达佩斯的路上,弗兰克终于明白任务的真相:女孩瓦伦汀娜(Natalya Rudakova 饰)是乌克兰环境部长之女,约翰森为使部长批准他的计划而掳走瓦伦汀娜,在约翰森和部长两路人马的追击中,弗兰克该如何化解这次的危机?

◎获奖情况

  第22届欧洲电影奖  (2009)
  观众选择奖(提名)

Video
ID : 1
Format : AVC
Format/Info : Advanced Video Codec
Format profile : High@L5.1
Format settings : CABAC / 5 Ref Frames
Format settings, CABAC : Yes
Format settings, RefFrames : 5 frames
Codec ID : V_MPEG4/ISO/AVC
Duration : 1 h 43 min
Bit rate : 56.1 Mb/s
Width : 3 840 pixels
Height : 1 632 pixels
Display aspect ratio : 2.35:1
Frame rate mode : Constant
Frame rate : 23.976 (24000/1001) FPS
Color space : YUV
Chroma subsampling : 4:2:0
Bit depth : 8 bits
Scan type : Progressive
Bits/(Pixel*Frame) : 0.373
Stream size : 41.1 GiB (86%)
Title : Transporter.3.2008.2160p.BluRay.x264.8bit.SDR.DTS-HD.MA.TrueHD.7.1.Atmos-SWTYBLZ
Writing library : x264 core 155 r2901 7d0ff22
Encoding settings : cabac=1 / ref=5 / deblock=1:-1:-1 / analyse=0x3:0x113 / me=umh / subme=10 / psy=1 / psy_rd=1.00:0.15 / mixed_ref=1 / me_range=48 / chroma_me=1 / trellis=2 / 8x8dct=1 / cqm=0 / deadzone=21,11 / fast_pskip=1 / chroma_qp_offset=-3 / threads=36 / lookahead_threads=3 / sliced_threads=0 / nr=0 / decimate=0 / interlaced=0 / bluray_compat=0 / constrained_intra=0 / bframes=3 / b_pyramid=2 / b_adapt=2 / b_bias=0 / direct=3 / weightb=1 / open_gop=0 / weightp=2 / keyint=250 / keyint_min=23 / scenecut=40 / intra_refresh=0 / rc_lookahead=50 / rc=crf / mbtree=1 / crf=18.0 / qcomp=0.60 / qpmin=0 / qpmax=69 / qpstep=4 / ip_ratio=1.40 / aq=1:1.00
Default : Yes
Forced : No

Audio #1
ID : 2
Format : TrueHD
Format profile : TrueHD+Atmos / TrueHD
Codec ID : A_TRUEHD
Duration : 1 h 43 min
Bit rate mode : Variable
Bit rate : 4 812 kb/s
Maximum bit rate : 7 776 kb/s
Channel(s) : Object Based / 8 channels
Channel positions : Object Based / Front: L C R, Side: L R, Back: L R, LFE
Sampling rate : / 48.0 kHz
Frame rate : 1 200.000 FPS (40 SPF)
Compression mode : Lossless
Stream size : 3.49 GiB (7%)
Title : Transporter.3.2008.2160p.BluRay.x264.8bit.SDR.DTS-HD.MA.TrueHD.7.1.Atmos-SWTYBLZ
Language : English
Default : Yes
Forced : No

Audio #2
ID : 3
Format : DTS
Format/Info : Digital Theater Systems
Format profile : MA / Core
Codec ID : A_DTS
Duration : 1 h 43 min
Bit rate mode : Variable / Constant
Bit rate : 4 099 kb/s / 1 509 kb/s
Channel(s) : 8 channels / 6 channels
Channel positions : Front: L C R, Side: L R, Back: L R, LFE / Front: L C R, Side: L R, LFE
Sampling rate : 48.0 kHz
Frame rate : 93.750 FPS (512 SPF)
Bit depth : 24 bits
Compression mode : Lossless / Lossy
Stream size : 2.98 GiB (6%)
Title : Transporter.3.2008.2160p.BluRay.x264.8bit.SDR.DTS-HD.MA.TrueHD.7.1.Atmos-SWTYBLZ
Language : English
Default : No
Forced : No

Audio #3
ID : 4
Format : AC-3
Format/Info : Audio Coding 3
Codec ID : A_AC3
Duration : 1 h 43 min
Bit rate mode : Constant
Bit rate : 448 kb/s
Channel(s) : 6 channels
Channel positions : Front: L C R, Side: L R, LFE
Sampling rate : 48.0 kHz
Frame rate : 31.250 FPS (1536 SPF)
Bit depth : 16 bits
Compression mode : Lossy
Stream size : 333 MiB (1%)
Title : Transporter.3.2008.2160p.BluRay.x264.8bit.SDR.DTS-HD.MA.TrueHD.7.1.Atmos-SWTYBLZ
Language : English
Service kind : Complete Main
Default : No
Forced : No

Text #1
ID : 5
Format : UTF-8
Codec ID : S_TEXT/UTF8
Codec ID/Info : UTF-8 Plain Text
Duration : 1 h 35 min
Bit rate : 40 b/s
Count of elements : 878
Stream size : 28.3 KiB (0%)
Title : English-SRT
Language : English
Default : Yes
Forced : No

Text #2
ID : 6
Format : PGS
Muxing mode : zlib
Codec ID : S_HDMV/PGS
Codec ID/Info : Picture based subtitle format used on BDs/HD-DVDs
Duration : 1 h 35 min
Bit rate : 23.5 kb/s
Count of elements : 1756
Stream size : 16.1 MiB (0%)
Title : English-PGS
Language : English
Default : No
Forced : No

Text #3
ID : 7
Format : PGS
Muxing mode : zlib
Codec ID : S_HDMV/PGS
Codec ID/Info : Picture based subtitle format used on BDs/HD-DVDs
Duration : 1 h 35 min
Bit rate : 27.0 kb/s
Count of elements : 2063
Stream size : 18.4 MiB (0%)
Title : English-SDH-PGS
Language : English
Default : No
Forced : No

Text #4
ID : 8
Format : PGS
Muxing mode : zlib
Codec ID : S_HDMV/PGS
Codec ID/Info : Picture based subtitle format used on BDs/HD-DVDs
Duration : 1 h 35 min
Bit rate : 22.9 kb/s
Count of elements : 1832
Stream size : 15.7 MiB (0%)
Title : Spanish-PGS
Language : Spanish
Default : No
Forced : No

Menu
00:00:00.000 : en:Chapter 1
00:08:03.566 : en:Chapter 2
00:14:38.419 : en:Chapter 3
00:17:04.481 : en:Chapter 4
00:22:02.321 : en:Chapter 5
00:30:53.268 : en:Chapter 6
00:35:09.190 : en:Chapter 7
00:41:46.754 : en:Chapter 8
00:48:57.309 : en:Chapter 9
00:56:54.786 : en:Chapter 10
01:06:42.665 : en:Chapter 11
01:11:05.261 : en:Chapter 12
01:17:08.332 : en:Chapter 13
01:22:19.184 : en:Chapter 14
01:29:53.471 : en:Chapter 15
01:35:39.859 : en:Chapter 16

游客,如果您要查看本帖隐藏内容请回复

0

主题

19

帖子

57

积分

包年VIP

积分
57
发表于 2018-8-24 20:22:08 | 显示全部楼层
学习了,不错,讲的太有道理了
回复

使用道具 举报

发表于 2018-8-24 20:24:14 | 显示全部楼层
谢谢楼主,共同发展
回复

使用道具 举报

0

主题

20

帖子

60

积分

包年VIP

积分
60
发表于 2018-8-27 23:16:40 | 显示全部楼层
不错不错,楼主您辛苦了。。。
回复

使用道具 举报

发表于 2018-8-31 19:06:02 | 显示全部楼层
帮你顶下哈!!
回复

使用道具 举报

0

主题

18

帖子

54

积分

包年VIP

积分
54
发表于 2018-9-12 15:15:56 | 显示全部楼层
这是什么东东啊
回复

使用道具 举报

0

主题

21

帖子

63

积分

包年VIP

积分
63
发表于 2018-9-23 21:24:42 | 显示全部楼层
谢谢楼主,共同发展
回复

使用道具 举报

您需要登录后才可以回帖 登录 | 立即注册

本版积分规则


源速

网站简介:本站所有资源均免费提供,暂不提供VIP服务,秉承互联网共享精神,将尽最大的努力把付费资源变成免费共享,另外本站所有资源均采集于互联网,只采集下载链接,不保存任何资源,如果有侵犯版权的地方请作者发邮件到我们邮箱,我们将在48小时之内进行删除,谢谢合作!

作者微信

联系我们

  • 工作时间:上午9点至晚上7点
  • 讨论QQ群:20627629
  • 反馈邮箱:yszyz@yszyz.net
  • 公司地址:广东省深圳市福田区上步大厦

QQ|Archiver|手机版|小黑屋|WWW.YSZYZ.NET

Powered by 源速资源站 X3.4 © 2018-2020 WWW.YSZYZ.NET

快速回复 返回顶部 返回列表